Expertus metuit
Разные операции с видео из командной строки в линуксе
2020-12-18 12:00

Иногда нужно выполнить простые операции над видеофайлами без установки специализированного GUI-софта. Для некоторых из них есть альтернативы из командной строки.

Чаще всего мы будем использовать ffmpeg.

Конкатенация нескольких видеофайлов файлов в один без пережатия

Есть, например, несколько файлов из одной сессии записи с камеры, скажем: S2950001.MP4 S2950002.MP4 S2950003.MP4 S2950004.MP4 S2950005.MP4, нужно их сконкатенировать без пережатия в один файл. Допустим, все эти файлы лежат в одном каталоге и других *.MP4 файлов в нём нет.

Сначала нужно создать индексный файл index.txt со списком файлов:

echo > index.txt; for x in $(ls *.MP4); do echo "file ${x}" >> index.txt; done

Можно отредактировать этот файл, если порядок указанных там видеофайлов неправильный.

Дальше запускаем ffmpeg с нужными аргументами:

ffmpeg -f concat -i index.txt -c copy output.mp4

Как узнать параметры видеофайла

Используем команду ffprobe output.mp4 (она входит в состав пакета ffmpeg).

[[email protected]]% ffprobe output.mp4  
ffprobe version 4.3.1-3 Copyright (c) 2007-2020 the FFmpeg developers
  built with gcc 10 (Debian 10.2.0-7)
  configuration: --prefix=/usr ...skipped... --enable-shared
  libavutil      56. 51.100 / 56. 51.100
  libavcodec     58. 91.100 / 58. 91.100
  libavformat    58. 45.100 / 58. 45.100
  libavdevice    58. 10.100 / 58. 10.100
  libavfilter     7. 85.100 /  7. 85.100
  libavresample   4.  0.  0 /  4.  0.  0
  libswscale      5.  7.100 /  5.  7.100
  libswresample   3.  7.100 /  3.  7.100
  libpostproc    55.  7.100 / 55.  7.100
Input #0, mov,mp4,m4a,3gp,3g2,mj2, from 'output.mp4':
  Metadata:
    major_brand     : isom
    minor_version   : 512
    compatible_brands: isomiso2avc1mp41
    encoder         : Lavf58.45.100
  Duration: 02:20:23.04, start: 0.000000, bitrate: 8173 kb/s
    Stream #0:0(rus): Video: h264 (High) (avc1 / 0x31637661), yuv420p(tv, bt709),
1280x720 [SAR 1:1 DAR 16:9], 7913 kb/s, 25 fps, 25 tbr, 90k tbn, 50 tbc (default)
    Metadata:
      handler_name    : VideoHandler
    Stream #0:1(rus): Audio: aac (LC) (mp4a / 0x6134706D), 48000 Hz, stereo, fltp, 253 kb/s (default)
    Metadata:
      handler_name    : SoundHandler

Удаление аудио-канала из файла

Используем ffmpeg:

[[email protected]]% ffmpeg -i INPUT_FILE.mp4 -c copy -an OUTPUT_FILE.mp4

Комментарии

Текст комментария (разметка: *курсив*, **полужирная**, [ссылка](http://example.com) или <http://example.com> ещё)
Имя (обязательно, 50 символов или меньше)
Опциональный email, на который получать ответы (не будет опубликован)
Веб-сайт
© 2006—2019 Sergey Stolyarov | Работает на Pyrone